lomocoinwallet.com - The Largest Bittorent System Login   |    Register
Latest Articles
Most searched
Hot torrents
Movie Torrents
View Torrent Info: Mortal Engines (2018) [WEBRip] [720p] English [YTS.AM]
View Torrent Info: Robin Hood (2018) [720p] [YTS] [YIFY]
View Torrent Info: Overlord (2018) [720p] [YTS] [YIFY]
View Torrent Info: Prospect (2018) [720p] [YTS] [YIFY]
View Torrent Info: Project Gutenberg (2018) [720p] [YTS] [YIFY]
View Torrent Info: Velvet Buzzsaw (2019) [720p] [YTS] [YIFY]
View Torrent Info: An Affair to Die For (2019) [720p] [YTS] [YIFY]
View Torrent Info: Goyo: The Boy General (2018) [720p] [YTS] [YIFY]
View Torrent Info: Can You Ever Forgive Me? (2018) [720p] [YTS] [YIFY]
View Torrent Info: Zero (2018) [720p] [YTS] [YIFY]
Hot torrents
TV Torrents
View Torrent Info: The.Flash.2014.S05E13.HDTV.x264-SVA[eztv]
View Torrent Info: The.Big.Bang.Theory.S12E14.HDTV.x264-SVA[eztv]
View Torrent Info: The.Blacklist.S06E05.HDTV.x264-KILLERS[eztv]
View Torrent Info: Supernatural.S14E12.HDTV.x264-SVA[eztv]
View Torrent Info: The.Orville.S02E06.WEB.x264-TBS[eztv]
View Torrent Info: Arrow.S07E12.HDTV.x264-SVA[eztv]
View Torrent Info: Blindspot.S04E11.HDTV.x264-SVA[eztv]
View Torrent Info: Manifest.S01E14.HDTV.x264-BATV[eztv]
View Torrent Info: gotham.s05e05.web.x264-tbs[eztv]
View Torrent Info: Brooklyn.Nine-Nine.S06E04.HDTV.x264-KILLERS[eztv]
lomocoinwallet.com > Categories > Movies torrents > DVD / Film Extras torrents


Browse Movies torrents

If.Beale.Street.Could.Talk.2018.DVDScr.XVID.AC3.With.Sample.LLG torrent



Download torrent: Download If.Beale.Street.Could.Talk.2018.DVDScr.XVID.AC3.With.Sample.LLG torrent Magnet link Bookmark Torrent: If.Beale.Street.Could.Talk.2018.DVDScr.XVID.AC3.With.Sample.LLG If.Beale.Street.Could.Talk.2018.DVDScr.XVID.AC3.With.Sample.LLG torrent | if not working, try instead: Magnet Link
Info hash: 1CA28BE6687B05A753CB5099E735224515598DD1
Category: Categories > Movies torrents > DVD / Film Extras torrents
Trackers:
2    View all torrent trackers >
Health:
 seeds: 7 ,  leechers: 3 |  Update >
Torrent language:  
Total Size: 1.20 GB
Torrent status: Added by trusted uploader Added by trusted uploader Trusted Uploader Site Friend Superman Sun
Uploader: Trusted Uploader Site Friend Superman Sun
Torrent added: 2019-02-03 07:27:53
 

Download If.Beale.Street.Could.Talk.2018.DVDScr.XVID.AC3.With.Sample.LLG torrent if not working, try downloading torrent using Download If.Beale.Street.Could.Talk.2018.DVDScr.XVID.AC3.With.Sample.LLG via Magnet Link




Torrent Description

Quote:




******************************Thumbnail:**********************



******************************Screenshots:********************

Screenshot 1

Screenshot 2

Screenshot 3

Screenshot 4

Screenshot 5

Screenshot 6

Screenshot 7

Screenshot 8

Screenshot 9

Screenshot 0


******************************************************

If.Beale.Street.Could.Talk.2018.DVDScr.XVID.AC3.With.Sample.LLG.mp4
Format : MPEG-4
Format profile : Base Media
Codec ID : isom (isom/iso2/avc1/mp41)
File size : 1.22 GiB
Duration : 1 h 59 min
Overall bit rate mode : Variable
Overall bit rate : 1 461 kb/s
Writing application : Lavf57.83.100

Video
ID : 1
Format : AVC
Format/Info : Advanced Video Codec
Format profile : [email protected]
Format settings : CABAC / 1 Ref Frames
Format settings, CABAC : Yes
Format settings, RefFrames : 1 frame
Codec ID : avc1
Codec ID/Info : Advanced Video Coding
Duration : 1 h 59 min
Bit rate mode : Variable
Bit rate : 1 202 kb/s
Maximum bit rate : 3 600 kb/s
Width : 720 pixels
Height : 368 pixels
Display aspect ratio : 1.957
Frame rate mode : Constant
Frame rate : 23.976 (23976/1000) FPS
Color space : YUV
Chroma subsampling : 4:2:0
Bit depth : 8 bits
Scan type : Progressive
Bits/(Pixel*Frame) : 0.189
Stream size : 1 023 MiB (82%)
Codec configuration box : avcC

Audio
ID : 2
Format : AC-3
Format/Info : Audio Coding 3
Commercial name : Dolby Digital
Codec ID : ac-3
Duration : 1 h 59 min
Bit rate mode : Constant
Bit rate : 256 kb/s
Channel(s) : 2 channels
Channel layout : L R
Sampling rate : 48.0 kHz
Frame rate : 31.250 FPS (1536 SPF)
Bit depth : 16 bits
Compression mode : Lossy
Stream size : 218 MiB (18%)
Service kind : Complete Main
Default : Yes
Alternate group : 1



********************************************************




#LifeLongg -> To avoid fakes, ALWAYS check that the torrent was added on lomocoinwallet.com by LifeLongg

http://lomocoinwallet.com/



Download If.Beale.Street.Could.Talk.2018.DVDScr.XVID.AC3.With.Sample.LLG torrent


Comments (please add your comment)
1
posted by emmasexxx (2019-02-03 10:29:52)
emmasexxx avatar Tired of regular P0RN? Come to us >> relaxx.pro





Home - Browse Torrents - Upload Torrent - Stat - Forum - FAQ - Login
lomocoinwallet.com is in compliance with copyrights
2006-2018 lomocoinwallet.com
SitemapHandy GPS APK Full Version | Jung Jen Pao | Arrow First Air Date: 2012-10-10 Popularity: 445.88